<?xml version="1.0" standalone="no"?>
<!DOCTYPE svg PUBLIC "-//W3C//DTD SVG 1.1//EN" "http://www.w3.org/Graphics/SVG/1.1/DTD/svg11.dtd" >
<svg xmlns="http://www.w3.org/2000/svg">
<metadata>Generated by IcoMoon</metadata>
<defs>
<font id="sedagard" horiz-adv-x="1024">
<font-face units-per-em="1024" ascent="960" descent="-64" />
<missing-glyph horiz-adv-x="1024" />
<glyph unicode="&#x20;" horiz-adv-x="512" d="" />
<glyph unicode="&#xe900;" glyph-name="list-search" d="M638.624 618.668c139.865 0 253.248-113.384 253.248-253.248s-113.384-253.248-253.248-253.248c-139.865 0-253.248 113.384-253.248 253.248s113.384 253.248 253.248 253.248zM638.624 552.603c-103.378 0-187.184-83.806-187.184-187.184s83.806-187.184 187.184-187.184c103.378 0 187.184 83.806 187.184 187.184s-83.806 187.184-187.184 187.184zM807.954 196.090c12.9 12.9 33.815 12.9 46.715 0l137.636-137.636c12.9-12.9 12.9-33.815 0-46.715s-33.815-12.9-46.715 0l-137.636 137.636c-12.9 12.9-12.9 33.815 0 46.715zM913.892 893.935c18.243 0 33.032-14.789 33.032-33.032s-14.789-33.032-33.032-33.032h-880.859c-18.243 0-33.032 14.789-33.032 33.032s14.789 33.032 33.032 33.032h880.859zM253.246 563.613c18.243 0 33.032-14.789 33.032-33.032s-14.789-33.032-33.032-33.032h-220.214c-18.243 0-33.032 14.789-33.032 33.032s14.789 33.032 33.032 33.032h220.214zM253.246 233.29c18.243 0 33.032-14.789 33.032-33.032s-14.789-33.032-33.032-33.032h-220.214c-18.243 0-33.032 14.789-33.032 33.032s14.789 33.032 33.032 33.032h220.214z" />
<glyph unicode="&#xe901;" glyph-name="subtract-circle-minus-remove" d="M747.52 488.96c22.622 0 40.96-18.338 40.96-40.96s-18.338-40.96-40.96-40.96h-471.040c-22.622 0-40.96 18.338-40.96 40.96s18.338 40.96 40.96 40.96h471.040zM512 960c282.77 0 512-229.23 512-512s-229.229-512-512-512c-282.77 0-512 229.23-512 512s229.23 512 512 512zM512 878.080c-237.526 0-430.080-192.554-430.080-430.080s192.553-430.080 430.080-430.080c237.528 0 430.080 192.552 430.080 430.080s-192.553 430.080-430.080 430.080z" />
<glyph unicode="&#xe902;" glyph-name="sort-descending" d="M534.069 818.759c29.252 0 52.966-23.713 52.966-52.966s-23.713-52.966-52.966-52.966h-463.448c-29.252 0-52.966 23.713-52.966 52.966s23.713 52.966 52.966 52.966h463.448zM431.079 509.79c29.252 0 52.966-23.713 52.966-52.966s-23.713-52.966-52.966-52.966h-360.459c-29.252 0-52.966 23.713-52.966 52.966s23.713 52.966 52.966 52.966h360.459zM431.079 200.824c29.252 0 52.966-23.713 52.966-52.966s-23.713-52.966-52.966-52.966h-360.459c-29.252 0-52.966 23.713-52.966 52.966s23.713 52.966 52.966 52.966h360.459zM908.565 339.794c20.684 20.684 54.22 20.684 74.905 0s20.684-54.22 0-74.905l-154.483-154.483c-20.684-20.684-54.22-20.684-74.905 0l-154.483 154.483c-20.684 20.684-20.684 54.22 0 74.905s54.22 20.684 74.905 0l117.030-117.042 117.030 117.042zM791.534 818.759c29.252 0 52.966-23.713 52.966-52.966v-617.931c0-29.252-23.713-52.966-52.966-52.966s-52.966 23.713-52.966 52.966v617.931c0 29.252 23.713 52.966 52.966 52.966z" />
<glyph unicode="&#xe903;" glyph-name="share" d="M785.072 960c98.029 0 177.496-79.466 177.496-177.493s-79.467-177.494-177.496-177.494c-98.025 0-177.492 79.467-177.492 177.494s79.467 177.493 177.492 177.493zM785.072 878.080c-52.782 0-95.572-42.79-95.572-95.573s42.79-95.574 95.572-95.574c52.786 0 95.576 42.79 95.576 95.574s-42.79 95.573-95.576 95.573zM238.933 641.4c98.027 0 177.494-79.467 177.494-177.495 0-98.025-79.467-177.492-177.494-177.492s-177.493 79.467-177.493 177.492c0 98.029 79.466 177.495 177.493 177.495zM238.933 559.48c-52.784 0-95.573-42.79-95.573-95.575 0-52.782 42.79-95.572 95.573-95.572s95.574 42.79 95.574 95.572c0 52.785-42.79 95.575-95.574 95.575zM785.072 322.839c98.029 0 177.496-79.463 177.496-177.492 0-98.026-79.468-177.492-177.496-177.492-98.025 0-177.492 79.467-177.492 177.492 0 98.028 79.466 177.492 177.492 177.492zM785.072 240.919c-52.783 0-95.572-42.788-95.572-95.572 0-52.782 42.79-95.572 95.572-95.572 52.785 0 95.576 42.79 95.576 95.572 0 52.785-42.789 95.572-95.576 95.572zM321.41 415.821c11.389 19.545 36.467 26.157 56.012 14.767l310.84-181.133c19.545-11.389 26.157-36.467 14.767-56.012s-36.467-26.157-56.012-14.767l-310.84 181.133c-19.545 11.389-26.157 36.467-14.767 56.012zM646.54 749.177c19.538 11.402 44.62 4.807 56.022-14.731s4.807-44.62-14.731-56.022l-310.385-181.136c-19.538-11.402-44.62-4.807-56.022 14.731s-4.807 44.62 14.731 56.022l310.385 181.136z" />
<glyph unicode="&#xe904;" glyph-name="flag" d="M840.143 960c75.411 0 116.606-87.957 68.328-145.889l-165.161-198.137 165.16-198.182c46.974-56.366 9.245-141.157-62.289-145.699l-6.038-0.19-669.476 0.008v-268.208c0-19.45-14.641-35.48-33.503-37.671l-4.423-0.255c-20.946 0-37.926 16.98-37.926 37.926v918.373c0 20.946 16.98 37.926 37.926 37.926h707.402zM170.667 347.762l669.476-0.008c11.1 0 17.165 12.949 10.057 21.478l-185.367 222.439c-11.721 14.065-11.721 34.495 0 48.559l185.367 222.441c7.107 8.528 1.042 21.477-10.058 21.477h-669.476v-536.386z" />
<glyph unicode="&#xe905;" glyph-name="explicit" d="M900.923 960c53.472 0 96.819-43.348 96.819-96.82v-804.101c0-53.475-43.346-96.823-96.819-96.823h-804.102c-53.473 0-96.821 43.348-96.821 96.823v804.101c0 53.473 43.348 96.82 96.821 96.82h804.102zM900.923 881.231h-804.102c-9.97 0-18.052-8.082-18.052-18.051v-804.101c0-9.972 8.081-18.054 18.052-18.054h804.102c9.969 0 18.050 8.081 18.050 18.054v804.101c0 9.97-8.081 18.051-18.050 18.051zM613.742 730.255c21.752 0 39.385-17.633 39.385-39.385s-17.633-39.385-39.385-39.385h-190.358v-380.692l190.358-0.024c20.198 0 36.845-15.204 39.12-34.792l0.265-4.593c0-21.752-17.633-39.385-39.385-39.385h-229.742c-21.752 0-39.385 17.633-39.385 39.385v459.485c0 21.752 17.633 39.385 39.385 39.385h229.742zM613.742 500.513c21.752 0 39.385-17.633 39.385-39.385s-17.633-39.385-39.385-39.385h-229.742c-21.752 0-39.385 17.633-39.385 39.385s17.633 39.385 39.385 39.385h229.742z" />
<glyph unicode="&#xe906;" glyph-name="bookmark1" d="M947.005 774.314c44.844-15.759 76.995-58.482 76.995-108.714v-512c0-120.177-97.423-217.6-217.6-217.6h-512c-50.232 0-92.955 32.15-108.714 76.995l107.381-0.171 513.333-0.024c77.763 0 140.8 63.037 140.8 140.8v512l-0.205 2.61 0.010 106.104zM780.636 960c63.625 0 115.2-51.577 115.2-115.2v-665.436c0-63.625-51.575-115.2-115.2-115.2h-665.436c-63.623 0-115.2 51.575-115.2 115.2v665.436c0 63.623 51.577 115.2 115.2 115.2h665.436zM780.636 883.2h-665.436c-21.208 0-38.4-17.192-38.4-38.4v-665.436c0-21.207 17.192-38.4 38.4-38.4h665.436c21.207 0 38.4 17.193 38.4 38.4v665.436c0 21.208-17.193 38.4-38.4 38.4zM448 716.8c21.207 0 38.4-17.192 38.4-38.4v-128h128c21.207 0 38.4-17.193 38.4-38.4s-17.193-38.4-38.4-38.4h-128v-128c0-21.207-17.193-38.4-38.4-38.4s-38.4 17.193-38.4 38.4v128h-128c-21.208 0-38.4 17.193-38.4 38.4s17.192 38.4 38.4 38.4h128v128c0 21.208 17.193 38.4 38.4 38.4z" />
<glyph unicode="&#xe907;" glyph-name="close-outline" d="M632.202 448.145l366.582 365.727c16.051 16.053 25.073 37.826 25.073 60.528s-9.021 44.475-25.073 60.528c-16.056 16.053-37.827 25.072-60.529 25.072s-44.477-9.019-60.529-25.072l-365.727-366.579-365.727 366.579c-16.053 16.053-37.826 25.072-60.528 25.072s-44.475-9.019-60.528-25.072c-16.053-16.053-25.072-37.826-25.072-60.528s9.019-44.475 25.072-60.528l366.579-365.727-366.579-365.729c-7.99-7.921-14.333-17.352-18.661-27.74s-6.556-21.53-6.556-32.783c0-11.254 2.228-22.4 6.556-32.788s10.67-19.814 18.661-27.74c7.925-7.992 17.354-14.336 27.743-18.662s21.531-6.559 32.785-6.559c11.254 0 22.397 2.232 32.785 6.559s19.817 10.67 27.743 18.662l365.727 366.577 365.727-366.577c7.926-7.992 17.352-14.336 27.74-18.662s21.535-6.559 32.788-6.559c11.254 0 22.395 2.232 32.783 6.559s19.82 10.67 27.745 18.662c7.987 7.926 14.331 17.352 18.657 27.74 4.332 10.388 6.559 21.535 6.559 32.788s-2.227 22.395-6.559 32.783c-4.326 10.388-10.67 19.82-18.657 27.74l-366.582 365.729z" />
<glyph unicode="&#xe908;" glyph-name="telegram-fill" d="M1024 448c0-282.769-229.231-512-512-512s-512 229.231-512 512c0 282.769 229.231 512 512 512s512-229.231 512-512zM530.346 582.019c-49.795-20.713-149.326-63.584-298.584-128.612-24.238-9.64-36.934-19.069-38.090-28.289-1.954-15.581 17.559-21.717 44.129-30.071 3.615-1.139 7.361-2.316 11.198-3.564 26.143-8.499 61.307-18.44 79.589-18.833 16.583-0.358 35.090 6.478 55.523 20.511 139.459 94.136 211.446 141.718 215.964 142.742 3.193 0.725 7.608 1.634 10.602-1.026 2.992-2.66 2.701-7.7 2.382-9.052-1.933-8.239-78.529-79.45-118.166-116.3-12.356-11.487-21.121-19.636-22.913-21.496-4.014-4.174-8.106-8.116-12.036-11.905-24.285-23.411-42.498-40.968 1.008-69.64 20.91-13.777 37.64-25.17 54.331-36.536 18.227-12.415 36.407-24.797 59.931-40.217 5.994-3.93 11.715-8.008 17.291-11.981 21.215-15.124 40.274-28.711 63.818-26.542 13.683 1.257 27.814 14.121 34.99 52.488 16.959 90.675 50.301 287.142 58.006 368.103 0.678 7.092-0.17 16.171-0.854 20.154-0.682 3.985-2.107 9.662-7.287 13.867-6.136 4.977-15.604 6.027-19.839 5.951-19.259-0.338-48.804-10.613-190.994-69.753v0z" />
<glyph unicode="&#xe909;" glyph-name="success" d="M512 960c282.77 0 512-229.23 512-512s-229.23-512-512-512c-282.77 0-512 229.23-512 512s229.23 512 512 512zM512 857.6c-226.216 0-409.6-183.384-409.6-409.6s183.384-409.6 409.6-409.6c226.216 0 409.6 183.384 409.6 409.6s-183.384 409.6-409.6 409.6zM680.597 637.803l-270.997-270.994-66.197 66.194c-19.994 19.997-52.412 19.997-72.407 0-19.995-19.994-19.995-52.411 0-72.406l102.401-102.4c19.994-19.997 52.411-19.997 72.406 0l307.2 307.2c19.997 19.994 19.997 52.411 0 72.406-19.994 19.997-52.411 19.997-72.406 0v0z" />
<glyph unicode="&#xe90a;" glyph-name="close" d="M512 960c-282.717 0-512-229.283-512-512 0-282.718 229.283-512 512-512 282.718 0 512 229.282 512 512s-229.282 512-512 512zM756.363 273.453l-69.816-69.816-174.547 174.547-174.545-174.547-69.818 69.816 174.547 174.547-174.547 174.545 69.818 69.818 174.545-174.547 174.547 174.547 69.816-69.818-174.547-174.545 174.547-174.547z" />
<glyph unicode="&#xe90b;" glyph-name="plus" d="M810.667 490.67h-256v255.999c0 11.316-4.495 22.168-12.496 30.17s-18.852 12.497-30.17 12.497c-11.315 0-22.166-4.495-30.17-12.497-8.001-8.002-12.496-18.854-12.496-30.17v-255.999h-255.999c-11.316 0-22.168-4.495-30.17-12.496-8.002-8.004-12.497-18.855-12.497-30.17s4.495-22.17 12.497-30.17c8.002-8.001 18.854-12.496 30.17-12.496h255.999v-256c0-11.315 4.495-22.17 12.496-30.17 8.004-8.001 18.855-12.496 30.17-12.496 11.319 0 22.17 4.495 30.17 12.496s12.496 18.855 12.496 30.17v256h256c11.315 0 22.17 4.495 30.17 12.496s12.496 18.855 12.496 30.17c0 11.315-4.495 22.166-12.496 30.17-8.001 8.001-18.855 12.496-30.17 12.496z" />
<glyph unicode="&#xe90c;" glyph-name="navigate-next-up" d="M286.292 333.225c16.64-16.64 43.52-16.64 60.16 0l165.548 165.548 165.545-165.548c16.64-16.64 43.52-16.64 60.16 0s16.64 43.52 0 60.16l-195.84 195.84c-16.64 16.64-43.52 16.64-60.16 0l-195.84-195.84c-16.212-16.212-16.212-43.52 0.428-60.16v0z" />
<glyph unicode="&#xe90d;" glyph-name="navigate-next-down" d="M286.292 562.775c16.64 16.64 43.52 16.64 60.16 0l165.548-165.548 165.545 165.548c16.64 16.64 43.52 16.64 60.16 0s16.64-43.52 0-60.16l-195.84-195.84c-16.64-16.64-43.52-16.64-60.16 0l-195.84 195.84c-16.212 16.212-16.212 43.52 0.428 60.16v0z" />
<glyph unicode="&#xe90e;" glyph-name="pause" d="M512 960c-282.717 0-512-229.283-512-512s229.283-512 512-512c282.716 0 512 229.284 512 512s-229.284 512-512 512zM465.454 261.819h-139.635v372.362h139.635v-372.362zM698.181 261.819h-139.635v372.362h139.635v-372.362z" />
<glyph unicode="&#xe90f;" glyph-name="kebab-menu-horizontal" d="M368.64 832c0 70.4 57.344 128 128 128s128-57.6 128-128c0-70.4-57.344-128-128-128s-128 57.6-128 128zM368.64 64c0 70.398 57.344 128 128 128s128-57.602 128-128c0-70.402-57.344-128-128-128s-128 57.598-128 128zM368.64 448c0 70.402 57.344 128 128 128s128-57.598 128-128c0-70.398-57.344-128-128-128s-128 57.602-128 128z" />
<glyph unicode="&#xe910;" glyph-name="profile-circle" d="M517.74 375.129c-0.954 0-2.382 0-3.335 0-1.428 0-3.335 0-4.763 0-108.117 3.332-189.083 87.634-189.083 191.465 0 105.733 86.206 191.94 191.941 191.94 105.732 0 191.941-86.206 191.941-191.94-0.477-104.308-81.92-188.132-185.274-191.465-0.954 0-0.954 0-1.428 0zM512.023 687.568c-66.68 0-120.498-54.297-120.498-120.497 0-65.252 50.963-118.12 115.735-120.501 1.431 0.477 6.191 0.477 10.954 0 63.822 3.335 113.831 55.726 114.308 120.501 0 66.2-53.819 120.497-120.498 120.497zM512.041-64.009c-128.117 0-250.521 47.628-345.3 134.311-8.573 7.619-12.383 19.049-11.431 30.006 6.192 56.677 41.436 109.542 100.019 148.597 141.931 94.305 371.974 94.305 513.429 0 58.582-39.529 93.825-91.92 100.018-148.597 1.428-11.431-2.858-22.388-11.431-30.006-94.781-86.683-217.185-134.311-345.305-134.311zM230.086 109.831c79.063-66.2 178.604-102.4 281.955-102.4 103.354 0 202.895 36.2 281.96 102.4-8.575 29.055-31.437 57.154-65.252 80.015-117.163 78.111-315.772 78.111-433.889 0-33.815-22.862-56.201-50.96-64.774-80.015zM512-64c-282.434 0-512 229.566-512 512s229.566 512 512 512c282.434 0 512-229.566 512-512s-229.566-512-512-512zM512 888.558c-242.902 0-440.558-197.656-440.558-440.558s197.656-440.557 440.558-440.557c242.902 0 440.557 197.655 440.557 440.557s-197.655 440.558-440.557 440.558z" />
<glyph unicode="&#xe911;" glyph-name="play-circle" d="M512 960c-282.88 0-512-229.12-512-512s229.12-512 512-512c282.88 0 512 229.12 512 512s-229.12 512-512 512zM384 704l384-256-384-256v512z" />
<glyph unicode="&#xe912;" glyph-name="navigate-next-back" d="M626.774 673.706c16.64-16.64 16.64-43.52 0-60.16l-165.546-165.546 165.546-165.546c16.64-16.64 16.64-43.52 0-60.16s-43.52-16.64-60.16 0l-195.84 195.84c-16.64 16.64-16.64 43.52 0 60.16l195.84 195.84c16.214 16.212 43.52 16.212 60.16-0.428v0z" />
<glyph unicode="&#xe913;" glyph-name="navigate-next-forward" d="M397.226 673.706c-16.64-16.64-16.64-43.52 0-60.16l165.546-165.546-165.546-165.546c-16.64-16.64-16.64-43.52 0-60.16s43.52-16.64 60.16 0l195.84 195.84c16.64 16.64 16.64 43.52 0 60.16l-195.84 195.84c-16.214 16.212-43.52 16.212-60.16-0.428v0z" />
<glyph unicode="&#xe914;" glyph-name="trending-up" d="M896.003 661.349c0.404 2.973 0.404 5.989 0 8.961-0.372 2.505-1.088 4.946-2.133 7.253-1.126 2.085-2.411 4.082-3.839 5.973-1.624 2.699-3.637 5.143-5.974 7.253l-5.12 2.987c-2.463 1.837-5.199 3.276-8.107 4.267h-8.534c-2.598 2.518-5.635 4.542-8.959 5.973h-213.334c-11.314 0-22.168-4.495-30.17-12.497s-12.496-18.854-12.496-30.171c0-11.314 4.494-22.168 12.496-30.17s18.856-12.496 30.17-12.496h120.747l-170.666-200.961-184.32 109.656c-8.73 5.19-19.029 7.098-29.038 5.377-10.012-1.72-19.082-6.954-25.577-14.766l-213.333-256c-3.592-4.31-6.299-9.289-7.965-14.646-1.666-5.36-2.258-10.995-1.743-16.583s2.128-11.021 4.746-15.986c2.618-4.962 6.189-9.362 10.509-12.943 7.676-6.361 17.337-9.833 27.307-9.813 6.268-0.012 12.461 1.36 18.14 4.014 5.679 2.657 10.702 6.527 14.714 11.346l189.868 227.84 182.184-109.229c8.643-5.126 18.815-7.036 28.728-5.398 9.912 1.641 18.929 6.723 25.46 14.359l180.909 211.199v-98.131c0-11.317 4.494-22.168 12.496-30.17s18.853-12.499 30.17-12.499c11.317 0 22.168 4.497 30.17 12.499s12.496 18.853 12.496 30.17v213.331z" />
<glyph unicode="&#xe915;" glyph-name="search-outline" d="M883.627 136.959l-145.066 144.641c46.803 59.629 72.201 133.263 72.104 209.066 0 67.511-20.018 133.503-57.522 189.635-37.508 56.132-90.817 99.882-153.187 125.716s-131.002 32.594-197.214 19.424c-66.212-13.17-127.031-45.679-174.768-93.415s-80.245-108.556-93.415-174.768c-13.17-66.212-6.411-134.843 19.424-197.214s69.584-115.68 125.716-153.187c56.132-37.505 122.125-57.522 189.635-57.522 75.802-0.097 149.437 25.302 209.066 72.104l144.641-145.066c3.964-3.999 8.684-7.174 13.883-9.339s10.778-3.283 16.41-3.283c5.632 0 11.208 1.118 16.407 3.283s9.918 5.339 13.885 9.339c3.999 3.967 7.174 8.686 9.339 13.885s3.283 10.775 3.283 16.407c0 5.632-1.118 11.211-3.283 16.41s-5.339 9.918-9.339 13.883v0zM213.333 490.666c0 50.632 15.014 100.127 43.144 142.228 28.13 42.098 68.11 74.91 114.89 94.286 46.776 19.376 98.251 24.446 147.909 14.568s95.273-34.26 131.078-70.062c35.802-35.802 60.182-81.417 70.059-131.075 9.88-49.661 4.81-101.133-14.567-147.912-19.374-46.776-52.189-86.759-94.287-114.887-42.098-28.131-91.592-43.146-142.225-43.146-67.897 0-133.012 26.972-181.020 74.98-48.010 48.011-74.981 113.126-74.981 181.020z" />
<glyph unicode="&#xe916;" glyph-name="reload" d="M512.614 960c-271.106 0-492.922-221.816-492.922-492.922 0-271.108 221.816-492.926 492.922-492.926 135.554 0 261.25 52.988 349.98 142.946l-88.73 88.73c-66.544-66.544-158.968-108.446-262.479-108.446-204.565 0-369.695 165.132-369.695 369.696 0 204.562 165.129 369.691 369.695 369.691 102.282 0 191.008-44.363 257.552-112.14l-134.321-134.322h369.692v369.693l-146.645-146.645c-88.726 88.726-210.723 146.645-346.277 146.645h1.229z" />
<glyph unicode="&#xe917;" glyph-name="twitter-circle" d="M512 960c-282.743 0-512-229.257-512-512s229.257-512 512-512c282.743 0 512 229.257 512 512s-229.257 512-512 512zM758.057 574.056c0.342-5.37 0.342-10.971 0.342-16.456 0-167.772-127.771-361.030-361.257-361.030-71.999 0-138.742 20.914-194.971 56.914 10.286-1.143 20.114-1.599 30.629-1.599 59.429 0 114.057 20.113 157.6 54.172-55.771 1.143-102.629 37.714-118.628 88.001 19.542-2.857 37.143-2.857 57.256 2.286-28.715 5.835-54.528 21.43-73.048 44.138-18.522 22.708-28.611 51.128-28.551 80.433v1.599c16.8-9.486 36.571-15.315 57.258-16.114-17.39 11.588-31.652 27.29-41.519 45.709-9.869 18.422-15.038 38.992-15.053 59.89 0 23.656 6.171 45.257 17.256 64 31.875-39.238 71.649-71.33 116.74-94.19 45.089-22.86 94.484-35.977 144.974-38.496-17.943 86.286 46.516 156.115 124 156.115 36.571 0 69.487-15.315 92.686-39.999 28.686 5.37 56.115 16.114 80.572 30.513-9.486-29.37-29.372-54.172-55.773-69.829 25.6 2.742 50.287 9.828 73.144 19.771-17.258-25.371-38.859-47.886-63.658-65.829v0z" />
<glyph unicode="&#xe918;" glyph-name="instagram-with-circle" d="M719.892 605.28c-4.442 11.506-11.246 21.955-19.972 30.673-8.727 8.716-19.182 15.51-30.693 19.939-15.852 5.872-32.592 8.974-49.494 9.175-28.107 1.28-36.532 1.599-107.733 1.599s-79.626-0.319-107.733-1.599c-16.921-0.195-33.679-3.297-49.547-9.175-11.506-4.442-21.955-11.246-30.673-19.972-8.716-8.727-15.51-19.182-19.939-30.693-5.872-15.852-8.974-32.592-9.175-49.494-1.28-28.107-1.599-36.532-1.599-107.733s0.319-79.626 1.599-107.733c0.195-16.921 3.297-33.679 9.175-49.547 4.442-11.506 11.246-21.955 19.972-30.673 8.727-8.716 19.182-15.51 30.693-19.939 15.852-5.872 32.592-8.974 49.494-9.173 28.107-1.28 36.532-1.548 107.733-1.548s79.626 0.268 107.733 1.602c16.916 0.176 33.677 3.26 49.547 9.12 11.506 4.442 21.955 11.246 30.673 19.972 8.716 8.727 15.51 19.182 19.939 30.693 5.872 15.852 8.974 32.592 9.175 49.494 1.28 28.107 1.546 36.532 1.546 107.733s-0.266 79.626-1.599 107.733c-0.178 16.916-3.262 33.677-9.122 49.547v0zM512 311.040c-27.089 0-53.567 8.032-76.091 23.083-22.522 15.049-40.077 36.438-50.442 61.465-10.367 25.027-13.079 52.564-7.795 79.133 5.284 26.567 18.33 50.971 37.482 70.126 19.155 19.153 43.559 32.199 70.126 37.482 26.569 5.284 54.106 2.572 79.133-7.795 25.027-10.365 46.416-27.92 61.467-50.442 15.049-22.524 23.081-49.002 23.081-76.091 0-36.323-14.43-71.16-40.114-96.846-25.686-25.684-60.522-40.114-96.846-40.114zM654.346 558.346c-6.328 0-12.515 1.878-17.779 5.394-5.261 3.514-9.363 8.514-11.784 14.361-2.423 5.847-3.056 12.282-1.823 18.489 1.235 6.205 4.284 11.909 8.759 16.384s10.177 7.522 16.384 8.757c6.207 1.235 12.642 0.6 18.489-1.821 5.847-2.423 10.844-6.523 14.361-11.786 3.516-5.261 5.392-11.448 5.392-17.779 0-8.487-3.371-16.626-9.372-22.626-6.001-6.003-14.141-9.374-22.628-9.374v0zM600.908 448c0-17.584-5.216-34.773-14.985-49.394s-23.654-26.016-39.899-32.745c-16.247-6.73-34.122-8.489-51.368-5.059s-33.087 11.897-45.521 24.332c-12.435 12.433-20.902 28.275-24.332 45.521s-1.671 35.121 5.059 51.368c6.73 16.245 18.125 30.13 32.745 39.899s31.81 14.985 49.394 14.985c23.581 0 46.193-9.368 62.867-26.040 16.673-16.675 26.040-39.289 26.040-62.867v0zM512 960c-101.263 0-200.253-30.028-284.451-86.288s-149.823-136.224-188.575-229.778c-38.752-93.557-48.891-196.502-29.136-295.821 19.756-99.318 68.519-190.546 140.123-262.152 71.605-71.604 162.834-120.367 262.151-140.122 99.32-19.757 202.265-9.617 295.821 29.135s173.519 104.376 229.777 188.576c56.261 84.197 86.288 183.187 86.288 284.451 0 135.791-53.942 266.021-149.961 362.039s-226.249 149.961-362.039 149.961v0zM777.066 338.080c-0.451-22.129-4.653-44.022-12.427-64.745-6.849-17.711-17.322-33.796-30.751-47.223-13.427-13.429-29.512-23.902-47.221-30.751-20.709-7.768-42.582-11.971-64.694-12.427-28.479-1.28-37.546-1.599-109.974-1.599s-81.494 0.319-109.974 1.599c-22.112 0.457-43.985 4.659-64.692 12.427-17.711 6.849-33.796 17.322-47.223 30.751-13.429 13.427-23.902 29.512-30.751 47.223-7.768 20.707-11.971 42.58-12.427 64.692-1.28 28.479-1.599 37.546-1.599 109.974s0.319 81.494 1.599 109.974c0.44 22.108 4.624 43.983 12.374 64.694 6.849 17.725 17.328 33.823 30.765 47.26s29.534 23.917 47.262 30.765c20.709 7.75 42.584 11.934 64.692 12.374 28.479 1.28 37.546 1.599 109.974 1.599s81.494-0.319 109.974-1.599c22.108-0.44 43.983-4.624 64.694-12.374 17.715-6.855 33.802-17.336 47.231-30.773 13.427-13.437 23.898-29.532 30.74-47.251 7.768-20.709 11.971-42.582 12.427-64.694 1.28-28.479 1.599-37.546 1.599-109.974s-0.319-81.494-1.599-109.974v0.053z" />
<glyph unicode="&#xe919;" glyph-name="date-range" d="M384 490.666h-85.334v-85.334h85.334v85.334zM554.666 490.666h-85.331v-85.334h85.331v85.334zM725.334 490.666h-85.334v-85.334h85.334v85.334zM810.666 789.331h-42.666v85.333h-85.334v-85.333h-341.331v85.333h-85.334v-85.333h-42.667c-47.36 0-84.907-38.4-84.907-85.333l-0.427-597.332c0-46.934 37.973-85.334 85.333-85.334h597.332c46.934 0 85.334 38.4 85.334 85.334v597.332c0 46.933-38.4 85.333-85.334 85.333zM810.666 106.666h-597.332v469.331h597.332v-469.331z" />
<glyph unicode="&#xe91a;" glyph-name="clock-time" d="M512 944.941c274.454 0 496.941-222.488 496.941-496.941s-222.487-496.941-496.941-496.941c-274.453 0-496.941 222.488-496.941 496.941s222.488 496.941 496.941 496.941zM512 854.588c-224.552 0-406.588-182.036-406.588-406.588s182.035-406.588 406.588-406.588c224.553 0 406.588 182.035 406.588 406.588s-182.035 406.588-406.588 406.588zM512 764.234c24.95 0 45.176-20.226 45.176-45.176v-252.356l167.474-167.463c16.54-16.54 17.574-42.714 3.101-60.458l-3.101-3.431c-17.643-17.643-46.247-17.643-63.889 0l-180.706 180.706c-8.472 8.472-13.232 19.963-13.232 31.945v271.058c0 24.95 20.226 45.176 45.176 45.176z" />
<glyph unicode="&#xe91b;" d="M947.005 774.314c44.844-15.759 76.995-58.482 76.995-108.714v-512c0-120.177-97.423-217.6-217.6-217.6h-512c-50.232 0-92.955 32.15-108.714 76.995l107.381-0.171 513.333-0.024c77.763 0 140.8 63.037 140.8 140.8v512l-0.205 2.61 0.010 106.104zM780.636 960c63.625 0 115.2-51.577 115.2-115.2v-665.436c0-63.625-51.575-115.2-115.2-115.2h-665.436c-63.623 0-115.2 51.575-115.2 115.2v665.436c0 63.623 51.577 115.2 115.2 115.2h665.436z" />
<glyph unicode="&#xe91c;" d="M349.867 387.41l316.163 316.161c23.327 23.327 61.146 23.327 84.473 0 23.33-23.327 23.33-61.149 0-84.476l-358.4-358.399c-23.327-23.33-61.147-23.33-84.475 0l-119.467 119.467c-23.327 23.327-23.327 61.146 0 84.473 23.327 23.33 61.149 23.33 84.476 0l77.229-77.227z" />
<glyph unicode="&#xe91d;" glyph-name="forward-10-seconds" d="M328.895 684.775c7.341 1.886 15.1 1.258 22.038-1.776 6.941-3.036 12.647-8.299 16.232-14.921 3.611-6.664 4.87-14.313 3.638-21.729l0.401 4.165 0.032-392.933c0-16.411-12.353-29.936-28.268-31.785l-3.732-0.215c-17.673 0-32 14.327-32 32l-0.032 307.109-5.406-6.066c-11.701-12.854-22.368-23.155-32.258-30.691l-4.882-3.536c-14.577-9.993-34.494-6.277-44.487 8.3s-6.277 34.494 8.3 44.487c6.32 4.332 15.394 12.872 25.999 24.522 4.829 5.304 9.898 11.162 15.144 17.477 9.471 11.4 19.042 23.699 28.188 36.008 5.483 7.379 9.575 13.078 12.672 17.446 4.62 5.989 11.11 10.265 18.421 12.137zM574.016 693.872c85.049 0 153.994-68.944 153.994-153.993v-160.301c0-85.047-68.945-153.99-153.994-153.99-85.26 0-154.205 68.944-154.205 153.99v160.301c0 85.048 68.944 153.993 153.99 153.993h0.214zM574.016 629.872c-49.915 0-90.205-40.291-90.205-89.993v-160.301c0-49.7 40.291-89.99 89.99-89.99 49.917 0 90.208 40.29 90.208 89.99v160.301c0 49.703-40.291 89.993-89.994 89.993zM961.354 823.28c5.093 16.923 22.94 26.514 39.864 21.422s26.514-22.94 21.422-39.864l-64.876-215.588-215.58 65.121c-16.918 5.111-26.49 22.968-21.379 39.886s22.968 26.49 39.886 21.379l154.235-46.602 46.429 154.245zM390.365 947.647c116.594 26.383 238.777 10.201 344.48-45.622s187.96-147.608 231.909-258.775c6.498-16.435-1.558-35.026-17.994-41.524s-35.026 1.558-41.524 17.994c-38.334 96.963-110.081 177.021-202.279 225.712s-198.77 62.805-300.467 39.793c-101.694-23.012-191.807-81.633-254.061-165.274s-92.545-186.788-85.401-290.808c7.144-104.022 51.252-202.058 124.357-276.403 73.104-74.346 170.386-120.096 274.273-128.988 103.884-8.894 207.526 19.657 292.202 80.495 84.677 60.839 144.806 149.954 169.527 251.247 4.19 17.169 21.505 27.691 38.675 23.501s27.691-21.505 23.501-38.675c-28.342-116.131-97.278-218.298-194.358-288.049-97.080-69.749-215.903-102.483-335.004-92.286-119.104 10.194-230.637 62.646-314.449 147.882-83.813 85.234-134.382 197.631-142.572 316.89-8.191 119.257 26.537 237.513 97.91 333.406s174.686 163.1 291.276 189.483z" />
<glyph unicode="&#xe91e;" glyph-name="bookmark" d="M947.005 774.314c44.844-15.759 76.995-58.482 76.995-108.714v-512c0-120.177-97.423-217.6-217.6-217.6h-512c-50.232 0-92.955 32.15-108.714 76.995l107.381-0.171 513.333-0.024c77.763 0 140.8 63.037 140.8 140.8v512l-0.205 2.61 0.010 106.104zM780.636 960c63.625 0 115.2-51.577 115.2-115.2v-665.436c0-63.625-51.575-115.2-115.2-115.2h-665.436c-63.623 0-115.2 51.575-115.2 115.2v665.436c0 63.623 51.577 115.2 115.2 115.2h665.436zM780.636 883.2h-665.436c-21.208 0-38.4-17.192-38.4-38.4v-665.436c0-21.207 17.192-38.4 38.4-38.4h665.436c21.207 0 38.4 17.193 38.4 38.4v665.436c0 21.208-17.193 38.4-38.4 38.4zM647.892 748.944c-18.022 11.688-42.086 6.557-53.76-11.455l-217.825-335.753-106.227 98.222c-15.77 14.578-40.351 13.619-54.929-2.15-14.578-15.759-13.619-40.366 2.151-54.931l139.477-128.956c0 0 4.007-3.447 5.857-4.652 6.533-4.25 13.865-6.27 21.122-6.27 12.725 0 25.204 6.243 32.655 17.725l242.934 374.458c11.691 18.011 6.557 42.087-11.455 53.762z" />
<glyph unicode="&#xe91f;" glyph-name="skip-back" d="M889.173 30.72l-492.373 347.307c-47.787 34.133-47.787 105.813 0 139.093l492.373 348.16c57.173 39.253 134.827-0.853 134.827-69.973v-694.613c0-69.12-77.653-109.227-134.827-69.973zM170.667 874.667v-853.333c0-46.933-38.4-85.333-85.333-85.333s-85.333 38.4-85.333 85.333v853.333c0 46.933 38.4 85.333 85.333 85.333s85.333-38.4 85.333-85.333z" />
<glyph unicode="&#xe920;" glyph-name="sound-up" d="M112.102 623.242h-4.311c-28.588 0-56.005-11.357-76.22-31.571s-31.571-47.633-31.571-76.219v-107.79c0-28.59 11.357-56.006 31.571-76.22 20.215-20.217 47.632-31.573 76.22-31.573h4.311c15.552 0.007 30.921-3.352 45.053-9.844 14.132-6.496 26.691-15.968 36.815-27.774l196.287-229.055c32.553-37.943 94.802-14.93 94.802 35.086v786.55c0 50.015-62.249 73.028-94.857 35.032l-196.178-228.948c-10.125-11.822-22.691-21.311-36.832-27.814s-29.524-9.867-45.089-9.859zM842.708 877.898c-5.1 5.027-11.151 8.987-17.801 11.648s-13.759 3.971-20.92 3.853c-7.161-0.119-14.227-1.663-20.784-4.543s-12.472-7.038-17.405-12.231c-4.932-5.193-8.779-11.317-11.319-18.014-2.536-6.697-3.714-13.832-3.465-20.99 0.253-7.157 1.929-14.193 4.929-20.695s7.267-12.342 12.551-17.176c196.987-187.125 196.987-489.262 0-676.388-5.284-4.833-9.551-10.673-12.551-17.176s-4.676-13.537-4.929-20.695c-0.249-7.158 0.928-14.292 3.465-20.989 2.54-6.697 6.386-12.82 11.319-18.016 4.932-5.192 10.848-9.349 17.405-12.23s13.623-4.427 20.784-4.543c7.161-0.119 14.271 1.191 20.92 3.85 6.649 2.662 12.701 6.622 17.801 11.65 241.722 229.594 241.722 603.090 0 832.685v0zM683.878 726.99c-10.363 9.849-24.214 15.177-38.506 14.813s-27.853-6.39-37.7-16.753c-9.851-10.363-15.179-24.214-14.814-38.506 0.362-14.292 6.39-27.854 16.753-37.702 109.247-103.75 109.247-270.825 0-374.574-5.13-4.878-9.25-10.714-12.128-17.186-2.874-6.468-4.444-13.438-4.625-20.514-0.181-7.079 1.034-14.121 3.577-20.729 2.54-6.605 6.359-12.646 11.237-17.777 9.847-10.366 23.409-16.391 37.7-16.756 7.076-0.177 14.121 1.038 20.726 3.577 6.608 2.543 12.65 6.359 17.78 11.237 153.979 146.272 153.979 384.598 0 530.87v0z" />
<glyph unicode="&#xe921;" glyph-name="skip-next" d="M134.827 30.72l492.373 347.307c47.787 34.133 47.787 105.813 0 139.093l-492.373 348.16c-57.173 39.253-134.827-0.853-134.827-69.973v-694.613c0-69.12 77.653-109.227 134.827-69.973zM853.333 874.667v-853.333c0-46.933 38.4-85.333 85.333-85.333s85.333 38.4 85.333 85.333v853.333c0 46.933-38.4 85.333-85.333 85.333s-85.333-38.4-85.333-85.333z" />
<glyph unicode="&#xe922;" glyph-name="rewind-10-seconds" d="M22.779 844.701c16.923 5.093 34.771-4.498 39.864-21.421l46.381-154.213 154.282 46.57c15.71 4.745 32.229-3.169 38.601-17.869l1.285-3.51c5.111-16.918-4.461-34.776-21.379-39.886l-215.579-65.121-64.876 215.587c-5.093 16.923 4.498 34.771 21.421 39.864zM393.195 684.775c7.344 1.887 15.1 1.257 22.035-1.776 6.916-3.025 12.637-8.275 16.335-15.106 2.104-3.945 3.4-8.248 3.834-12.658l0.104-3.633 0.033-394.021c0-17.673-14.327-32-32-32s-32 14.327-32 32l-0.001 307.173-5.44-6.131c-11.7-12.853-22.366-23.154-32.257-30.689l-4.882-3.536c-14.577-9.993-34.494-6.277-44.487 8.3s-6.277 34.494 8.3 44.487c6.319 4.332 15.393 12.871 25.997 24.52 4.829 5.305 9.898 11.163 15.145 17.479 9.471 11.4 19.041 23.699 28.187 36.008 5.483 7.379 9.575 13.078 12.672 17.447 4.633 6.006 11.134 10.27 18.424 12.137zM638.326 693.872c85.049 0 153.994-68.944 153.994-153.993v-160.301c0-85.047-68.945-153.99-153.994-153.99-85.26 0-154.205 68.944-154.205 153.99v160.301c0 85.048 68.944 153.993 153.99 153.993h0.214zM638.326 629.872c-49.915 0-90.205-40.291-90.205-89.993v-160.301c0-49.7 40.291-89.99 89.99-89.99 49.917 0 90.208 40.29 90.208 89.99v160.301c0 49.703-40.291 89.993-89.994 89.993zM289.156 902.025c105.703 55.823 227.886 72.005 344.48 45.622 116.591-26.383 219.904-93.591 291.276-189.483s106.099-214.149 97.909-333.406c-8.19-119.26-58.758-231.656-142.57-316.89-83.815-85.237-195.346-137.689-314.449-147.882-119.102-10.197-237.925 22.536-335.007 92.286-97.079 69.752-166.015 171.92-194.355 288.049-4.19 17.169 6.332 34.484 23.501 38.674s34.484-6.332 38.674-23.501c24.719-101.292 84.848-190.407 169.524-251.247 84.678-60.838 188.32-89.389 292.205-80.495 103.886 8.891 201.167 54.641 274.273 128.988 73.104 74.344 117.211 172.38 124.355 276.403 7.144 104.020-23.147 207.168-85.4 290.809s-152.366 142.262-254.061 165.274c-101.698 23.012-208.27 8.898-300.467-39.793-92.199-48.691-163.946-128.748-202.281-225.712-6.498-16.435-25.089-24.491-41.524-17.993s-24.491 25.089-17.993 41.524c43.951 111.167 126.207 202.952 231.911 258.775z" />
</font>
</defs>
</svg>
